Shakunthladevi (2020) Hindi 720p WEBRip x265 HEVC . AAC . Eng Sub

seeders: 21
leechers: 4
updated:

Download Fast Safe Anonymous
movies, software, shows...

Files

  • Shakunthladevi (2020) Hindi 720p WEBRip x265 HEVC . AAC . Eng Sub.mkv (727.2 MB)

Description



Shakuntala Devi (2020)
13 | Biography, Drama | 31 July 2020 (India)

The extraordinary story of Shakuntala Devi, the world-renowned mathematician who lived her life on her own terms.

Director: Anu Menon
Writers: Anu Menon, Nayanika Mahtani
Stars: Vidya Balan, Sanya Malhotra, Jishu Sengupta.

Format : Matroska
Format version : Version 4
File size : 727 MiB
Duration : 2 h 7 min
Overall bit rate : 800 kb/s

Video
ID : 1
Format : HEVC
Format/Info : High Efficiency Video Coding
Format profile : [email protected]@Main
Codec ID : V_MPEGH/ISO/HEVC
Duration : 2 h 7 min
Bit rate : 674 kb/s
Width : 1 280 pixels
Height : 544 pixels
Display aspect ratio : 2.35:1
Original display aspect ratio : 2.35:1
Frame rate mode : Constant
Frame rate : 24.000 FPS
Standard : NTSC
Color space : YUV
Chroma subsampling : 4:2:0
Bit depth : 8 bits
Bits/(Pixel*Frame) : 0.040
Stream size : 612 MiB (84%)
Language : Hindi
Default : Yes
Forced : No
Color range : Limited
Color primaries : BT.709
Transfer characteristics : BT.709
Matrix coefficients : BT.709

Audio
ID : 2
Format : AAC LC
Format/Info : Advanced Audio Codec Low Complexity
Codec ID : A_AAC-2
Duration : 2 h 7 min
Bit rate : 124 kb/s
Channel(s) : 2 channels
Channel layout : L R
Sampling rate : 44.1 kHz
Frame rate : 43.066 FPS (1024 SPF)
Compression mode : Lossy
Stream size : 113 MiB (16%)
Language : Hindi
Default : Yes
Forced : No

Text
ID : 3
Format : UTF-8
Codec ID : S_TEXT/UTF8
Codec ID/Info : UTF-8 Plain Text
Duration : 2 h 3 min
Bit rate : 60 b/s
Count of elements : 1858
Stream size : 55.1 KiB (0%)
Language : English
Default : Yes
Forced : No



Download torrent
727.2 MB
seeders:21
leechers:4
Shakunthladevi (2020) Hindi 720p WEBRip x265 HEVC . AAC . Eng Sub


Trackers

tracker name
udp://exodus.desync.com:6969/announce
http://tracker3.itzmx.com:8080/announce
udp://explodie.org:6969/announce
udp://9.rarbg.to:2800/announce
http://tracker3.itzmx.com:6961/announce
http://tracker1.itzmx.com:8080/announce
udp://tracker.tiny-vps.com:6969/announce
udp://tracker.moeking.me:6969/announce
udp://tracker.torrent.eu.org:451/announce
udp://ipv4.tracker.harry.lu:80/announce
udp://tracker.opentrackr.org:1337/announce
http://explodie.org:6969/announce
http://tracker.opentrackr.org:1337/announce
udp://tracker.leechers-paradise.org:6969/announce
udp://tracker.open-internet.nl:6969/announce
udp://tracker.coppersurfer.tk:6969/announce
http://t.nyaatracker.com:80/announce
udp://open.stealth.si:80/announce
UDP://TRACKER.COPPERSURFER.TK:6969/ANNOUNCE
UDP://TRACKER.OPENTRACKR.ORG:1337/ANNOUNCE
UDP://TRACKER.LEECHERS-PARADISE.ORG:6969/ANNOUNCE
µTorrent compatible trackers list

Download torrent
727.2 MB
seeders:21
leechers:4
Shakunthladevi (2020) Hindi 720p WEBRip x265 HEVC . AAC . Eng Sub


Torrent hash: 66941232C9FADD1A68912AA1582F6D5762CF2ACF