MasterChef The Professionals (UK) S13E05 (1280x720p HD, 50fps, soft Eng subs)

seeders: 16
leechers: 0
updated:
Added by ElsonRoa in TV > HD

Download Fast Safe Anonymous
movies, software, shows...
  • Downloads: 105
  • Language: English

Files

MasterChef The Professionals (UK) S13E05
  • About this torrent.txt (2.3 KB)
  • Downloaded from Demonoid - www.dnoid.is.txt (0.1 KB)
  • If this torrent is dead.txt (0.1 KB)
  • MasterChef The Professionals (UK) S13E05.jpg (854.1 KB)
  • MasterChef The Professionals (UK) S13E05.mp4 (2.1 GB)
  • MasterChef The Professionals (UK) S13E05.srt (119.6 KB)
  • Torrent Downloaded From 1337x.to.txt (0.0 KB)
  • [TGx]Downloaded from torrentgalaxy.to.txt (0.5 KB)

Description

MasterChef The Professionals (UK) S13E05 (1280x720p HD, 50fps, soft Eng subs)

In the second heat of the week, four new professional chefs arrive ready and determined to cook off against each other in the MasterChef Kitchen in the hopes of making it through to the quarter-finals. Two gruelling challenges lay ahead of them. / / First up is the skills test. The first two chefs are challenged by Monica Galetti to French-trim a rack of lamb and cook a portion to serve with a mint pesto. The other two chefs take on Marcus Wareing's test where they must fillet a plaice and prepare it with a chicken butter sauce and pickled radish. / / Then the four chefs return to the kitchen to cook their own two-course signature dishes. They have one hour and 30 minutes to cook up a main and a dessert that highlight their creativity, flair and personal style. Then Monica, Marcus and Gregg will send two chefs home, while two progress to the next round.

First broadcast: 18 November 2020
Duration: 1 hour

Torrent dead? Request reseed at torrentgalaxy.org - or ask at elsonroa at tutanota.com

Media info:
General
Format : MPEG-4
Format profile : Base Media
Codec ID : isom (isom/iso2/avc1/mp41)
File size : 2.05 GiB
Duration : 57mn 49s
Overall bit rate mode : Variable
Overall bit rate : 5 086 Kbps


Video
ID : 1
Format : AVC
Format/Info : Advanced Video Codec
Format profile : [email protected]
Format settings, CABAC : Yes
Format settings, ReFrames : 4 frames
Codec ID : avc1
Codec ID/Info : Advanced Video Coding
Duration : 57mn 49s
Bit rate : 4 951 Kbps
Width : 1 280 pixels
Height : 720 pixels
Display aspect ratio : 16:9
Frame rate mode : Constant
Frame rate : 50.000 fps
Color space : YUV
Chroma subsampling : 4:2:0
Bit depth : 8 bits
Scan type : Progressive
Bits/(Pixel*Frame) : 0.107
Stream size : 2.00 GiB (97%)
Encoded date : UTC 1904-01-01 00:00:00
Tagged date : UTC 1904-01-01 00:00:00
Color range : Limited
Color primaries : BT.709
Transfer characteristics : BT.709
Matrix coefficients : BT.709

Audio
ID : 2
Format : AAC
Format/Info : Advanced Audio Codec
Format profile : LC
Codec ID : 40
Duration : 57mn 49s
Bit rate mode : Variable
Bit rate : 128 Kbps
Maximum bit rate : 131 Kbps
Channel(s) : 2 channels
Channel positions : Front: L R
Sampling rate : 48.0 KHz
Frame rate : 46.875 fps (1024 spf)
Compression mode : Lossy
Stream size : 52.9 MiB (3%)
Language : English



Download torrent
2.1 GB
seeders:16
leechers:0
MasterChef The Professionals (UK) S13E05 (1280x720p HD, 50fps, soft Eng subs)


Trackers

tracker name
udp://us-tracker.publictracker.xyz:6969/announce
udp://tracker.opentrackr.org:1337/announce
udp://tracker.cyberia.is:6969/announce
udp://t.lint2.com:9000/announce
udp://tracker.moeking.me:6969/announce
udp://tracker.torrent.eu.org:451/announce
udp://tracker.tiny-vps.com:6969/announce
udp://open.stealth.si:80/announce
µTorrent compatible trackers list

Download torrent
2.1 GB
seeders:16
leechers:0
MasterChef The Professionals (UK) S13E05 (1280x720p HD, 50fps, soft Eng subs)


Torrent hash: F1B989717FA6AB9E5DF609EB024DB5D693C67FA5