Dhoom Trilogy (2004-2013) Hindi 1080p 10bit Bluray x265 HEVC DDP 5.1 MSubs ~ TombDoc

seeders: 17
leechers: 8
updated:

Download Fast Safe Anonymous
movies, software, shows...

Files

Dhoom Trilogy (2004-2013) ~ TombDoc
  • D.T.jpg (75.5 KB)
  • Dhoom (2004) Hindi 1080p 10bit Bluray x265 HEVC DDP 5.1 MSubs ~ TombDoc.mkv (5.3 GB)
  • Dhoom 2 (2006) Hindi 1080p 10bit Bluray x265 HEVC DDP 5.1 MSubs ~ TombDoc.mkv (5.9 GB)
  • Dhoom 3 (2013) Hybrid 1080p GER 10bit Bluray x265 HEVC Hindi DDP 5.1 MSubs ~ TombDoc.mkv (6.6 GB)

Description



One brave cop... one smart thief...




Dhoom Trilogy (2004-2013) Hindi 1080p 10bit Bluray x265 HEVC DDP 5.1 MSubs ~ TombDoc






Dhoom (2004) Hindi 1080p 10bit Bluray x265 HEVC DDP 5.1 MSubs ~ TombDoc


Code:

Format                                   : Matroska
Format version                           : Version 4
File size                                : 5.30 GiB
Duration                                 : 2 h 58 min
Overall bit rate                         : 4 250 kb/s

Video
ID                                       : 1
Format                                   : HEVC
Format/Info                              : High Efficiency Video Coding
Format profile                           : Main [email protected]@Main
Codec ID                                 : V_MPEGH/ISO/HEVC
Duration                                 : 2 h 9 min
Bit rate                                 : 5 084 kb/s
Width                                    : 1 920 pixels
Height                                   : 818 pixels
Display aspect ratio                     : 2.35:1
Frame rate mode                          : Constant
Frame rate                               : 24.000 FPS
Color space                              : YUV
Chroma subsampling                       : 4:2:0
Bit depth                                : 10 bits
Bits/(Pixel*Frame)                       : 0.135
Stream size                              : 4.59 GiB (87%)
Default                                  : Yes
Forced                                   : No
Color range                              : Limited
Color primaries                          : BT.709
Transfer characteristics                 : BT.709
Matrix coefficients                      : BT.709

Audio
ID                                       : 2
Format                                   : E-AC-3
Format/Info                              : Enhanced AC-3
Commercial name                          : Dolby Digital Plus
Codec ID                                 : A_EAC3
Duration                                 : 2 h 9 min
Bit rate mode                            : Constant
Bit rate                                 : 768 kb/s
Channel(s)                               : 6 channels
Channel layout                           : L R C LFE Ls Rs
Sampling rate                            : 48.0 kHz
Frame rate                               : 31.250 FPS (1536 SPF)
Compression mode                         : Lossy
Stream size                              : 709 MiB (13%)
Title                                    : Hindi DD+ 5.1 768Kbps ~ TombDoc
Language                                 : Hindi
Service kind                             : Complete Main
Default                                  : Yes
Forced                                   : Yes

Text #1
ID                                       : 3
Format                                   : PGS
Muxing mode                              : zlib
Codec ID                                 : S_HDMV/PGS
Codec ID/Info                            : Picture based subtitle format used on BDs/HD-DVDs
Duration                                 : 2 h 57 min
Bit rate                                 : 18.2 kb/s
Count of elements                        : 2798
Stream size                              : 23.1 MiB (0%)
Title                                    : Eng BD-PGS
Language                                 : English
Default                                  : No
Forced                                   : No

Text #2
ID                                       : 4
Format                                   : PGS
Muxing mode                              : zlib
Codec ID                                 : S_HDMV/PGS
Codec ID/Info                            : Picture based subtitle format used on BDs/HD-DVDs
Duration                                 : 2 h 57 min
Bit rate                                 : 14.9 kb/s
Count of elements                        : 4056
Stream size                              : 18.9 MiB (0%)
Title                                    : Arabic BD-PGS
Language                                 : Arabic
Default                                  : No
Forced                                   : No

Menu
00:00:00.000                             : en:Chapter 01
00:04:49.000                             : en:Chapter 02
00:10:10.458                             : en:Chapter 03
00:12:25.542                             : en:Chapter 04
00:16:57.875                             : en:Chapter 05
00:22:23.417                             : en:Chapter 06
00:25:25.417                             : en:Chapter 07
00:33:04.250                             : en:Chapter 08
00:35:41.708                             : en:Chapter 09
00:40:06.292                             : en:Chapter 10
00:43:30.750                             : en:Chapter 11
00:51:33.583                             : en:Chapter 12
00:56:09.958                             : en:Chapter 13
00:59:51.583                             : en:Chapter 14
01:02:40.667                             : en:Chapter 15
01:07:42.000                             : en:Chapter 16
01:08:53.375                             : en:Chapter 17
01:15:16.958                             : en:Chapter 18
01:19:34.083                             : en:Chapter 19
01:25:58.917                             : en:Chapter 20
01:29:59.750                             : en:Chapter 21
01:32:35.917                             : en:Chapter 22
01:35:33.875                             : en:Chapter 23
01:39:43.792                             : en:Chapter 24
01:45:27.333                             : en:Chapter 25
01:50:19.500                             : en:Chapter 26
01:55:21.167                             : en:Chapter 27
02:05:56.500                             : en:Chapter 28






Dhoom 2 (2006) Hindi 1080p 10bit Bluray x265 HEVC DDP 5.1 MSubs ~ TombDoc


Code:

Format                                   : Matroska
Format version                           : Version 4
File size                                : 5.89 GiB
Duration                                 : 2 h 31 min
Overall bit rate                         : 5 556 kb/s

Video
ID                                       : 1
Format                                   : HEVC
Format/Info                              : High Efficiency Video Coding
Format profile                           : Main [email protected]@Main
Codec ID                                 : V_MPEGH/ISO/HEVC
Duration                                 : 2 h 31 min
Bit rate                                 : 4 763 kb/s
Width                                    : 1 920 pixels
Height                                   : 816 pixels
Display aspect ratio                     : 2.35:1
Frame rate mode                          : Constant
Frame rate                               : 24.000 FPS
Color space                              : YUV
Chroma subsampling                       : 4:2:0
Bit depth                                : 10 bits
Bits/(Pixel*Frame)                       : 0.127
Stream size                              : 5.05 GiB (86%)
Default                                  : Yes
Forced                                   : No
Color range                              : Limited
Color primaries                          : BT.709
Transfer characteristics                 : BT.709
Matrix coefficients                      : BT.709

Audio
ID                                       : 2
Format                                   : E-AC-3
Format/Info                              : Enhanced AC-3
Commercial name                          : Dolby Digital Plus
Codec ID                                 : A_EAC3
Duration                                 : 2 h 31 min
Bit rate mode                            : Constant
Bit rate                                 : 768 kb/s
Channel(s)                               : 6 channels
Channel layout                           : L R C LFE Ls Rs
Sampling rate                            : 48.0 kHz
Frame rate                               : 31.250 FPS (1536 SPF)
Compression mode                         : Lossy
Stream size                              : 834 MiB (14%)
Title                                    : Hindi DD+ 5.1 768Kbps ~ TombDoc
Language                                 : Hindi
Service kind                             : Complete Main
Default                                  : Yes
Forced                                   : Yes

Text #1
ID                                       : 3
Format                                   : PGS
Muxing mode                              : zlib
Codec ID                                 : S_HDMV/PGS
Codec ID/Info                            : Picture based subtitle format used on BDs/HD-DVDs
Duration                                 : 2 h 31 min
Bit rate                                 : 23.0 kb/s
Count of elements                        : 3064
Stream size                              : 24.8 MiB (0%)
Title                                    : Eng BD-PGS
Language                                 : English
Default                                  : No
Forced                                   : No

Text #2
ID                                       : 4
Format                                   : PGS
Muxing mode                              : zlib
Codec ID                                 : S_HDMV/PGS
Codec ID/Info                            : Picture based subtitle format used on BDs/HD-DVDs
Duration                                 : 2 h 31 min
Bit rate                                 : 41.9 kb/s
Count of elements                        : 3582
Stream size                              : 45.2 MiB (1%)
Title                                    : Tamil BD-PGS
Language                                 : Tamil
Default                                  : No
Forced                                   : No

Text #3
ID                                       : 5
Format                                   : PGS
Muxing mode                              : zlib
Codec ID                                 : S_HDMV/PGS
Codec ID/Info                            : Picture based subtitle format used on BDs/HD-DVDs
Duration                                 : 2 h 31 min
Bit rate                                 : 20.7 kb/s
Count of elements                        : 3070
Stream size                              : 22.3 MiB (0%)
Title                                    : Telugu BD-PGS
Language                                 : Telugu
Default                                  : No
Forced                                   : No

Text #4
ID                                       : 6
Format                                   : PGS
Muxing mode                              : zlib
Codec ID                                 : S_HDMV/PGS
Codec ID/Info                            : Picture based subtitle format used on BDs/HD-DVDs
Duration                                 : 2 h 31 min
Bit rate                                 : 10.8 kb/s
Count of elements                        : 3064
Stream size                              : 11.6 MiB (0%)
Title                                    : Arabic BD-PGS
Language                                 : Arabic
Default                                  : No
Forced                                   : No

Menu
00:00:00.000                             : en:Chapter 01
00:07:07.583                             : en:Chapter 02
00:10:24.083                             : en:Chapter 03
00:18:14.458                             : en:Chapter 04
00:30:50.875                             : en:Chapter 05
00:36:13.625                             : en:Chapter 06
00:50:10.167                             : en:Chapter 07
01:02:42.208                             : en:Chapter 08
01:07:49.750                             : en:Chapter 09
01:17:53.792                             : en:Chapter 10
01:24:46.458                             : en:Chapter 11
01:34:38.292                             : en:Chapter 12
01:39:18.708                             : en:Chapter 13
01:49:01.250                             : en:Chapter 14
01:56:24.250                             : en:Chapter 15
02:01:28.625                             : en:Chapter 16
02:08:51.417                             : en:Chapter 17
02:11:55.917                             : en:Chapter 18
02:17:25.125                             : en:Chapter 19
02:29:17.208                             : en:Chapter 20






Dhoom 3 (2013) Hybrid 1080p GER 10bit Bluray x265 HEVC Hindi DDP 5.1 MSubs ~ TombDoc


Code:

Format                                   : Matroska
Format version                           : Version 4
File size                                : 6.60 GiB
Duration                                 : 2 h 51 min
Overall bit rate                         : 5 525 kb/s

Video
ID                                       : 1
Format                                   : HEVC
Format/Info                              : High Efficiency Video Coding
Format profile                           : Main [email protected]@Main
Codec ID                                 : V_MPEGH/ISO/HEVC
Duration                                 : 2 h 51 min
Bit rate                                 : 4 717 kb/s
Width                                    : 1 920 pixels
Height                                   : 816 pixels
Display aspect ratio                     : 2.35:1
Frame rate mode                          : Constant
Frame rate                               : 24.000 FPS
Color space                              : YUV
Chroma subsampling                       : 4:2:0
Bit depth                                : 10 bits
Bits/(Pixel*Frame)                       : 0.125
Stream size                              : 5.64 GiB (85%)
Default                                  : Yes
Forced                                   : No
Color range                              : Limited
Color primaries                          : BT.709
Transfer characteristics                 : BT.709
Matrix coefficients                      : BT.709

Audio
ID                                       : 2
Format                                   : E-AC-3
Format/Info                              : Enhanced AC-3
Commercial name                          : Dolby Digital Plus
Codec ID                                 : A_EAC3
Duration                                 : 2 h 51 min
Bit rate mode                            : Constant
Bit rate                                 : 768 kb/s
Channel(s)                               : 6 channels
Channel layout                           : L R C LFE Ls Rs
Sampling rate                            : 48.0 kHz
Frame rate                               : 31.250 FPS (1536 SPF)
Compression mode                         : Lossy
Stream size                              : 940 MiB (14%)
Title                                    : Hindi DD+ 5.1 768Kbps ~ TombDoc
Language                                 : Hindi
Service kind                             : Complete Main
Default                                  : Yes
Forced                                   : Yes

Text #1
ID                                       : 3
Format                                   : PGS
Muxing mode                              : zlib
Codec ID                                 : S_HDMV/PGS
Codec ID/Info                            : Picture based subtitle format used on BDs/HD-DVDs
Duration                                 : 1 h 41 min
Bit rate                                 : 1 008 b/s
Count of elements                        : 84
Stream size                              : 747 KiB (0%)
Title                                    : Hindi BD-PGS {Forced}
Language                                 : Hindi
Default                                  : Yes
Forced                                   : No

Text #2
ID                                       : 4
Format                                   : PGS
Muxing mode                              : zlib
Codec ID                                 : S_HDMV/PGS
Codec ID/Info                            : Picture based subtitle format used on BDs/HD-DVDs
Duration                                 : 2 h 45 min
Bit rate                                 : 18.4 kb/s
Count of elements                        : 2580
Stream size                              : 21.7 MiB (0%)
Title                                    : Eng BD-PGS
Language                                 : English
Default                                  : No
Forced                                   : No

Text #3
ID                                       : 5
Format                                   : PGS
Muxing mode                              : zlib
Codec ID                                 : S_HDMV/PGS
Codec ID/Info                            : Picture based subtitle format used on BDs/HD-DVDs
Duration                                 : 2 h 45 min
Bit rate                                 : 11.3 kb/s
Count of elements                        : 2580
Stream size                              : 13.4 MiB (0%)
Title                                    : Arabic BD-PGS
Language                                 : Arabic
Default                                  : No
Forced                                   : No

Text #4
ID                                       : 6
Format                                   : PGS
Muxing mode                              : zlib
Codec ID                                 : S_HDMV/PGS
Codec ID/Info                            : Picture based subtitle format used on BDs/HD-DVDs
Duration                                 : 2 h 49 min
Bit rate                                 : 24.3 kb/s
Count of elements                        : 2680
Stream size                              : 29.4 MiB (0%)
Title                                    : German BD-PGS
Language                                 : German
Default                                  : No
Forced                                   : No

Text #5
ID                                       : 7
Format                                   : PGS
Muxing mode                              : zlib
Codec ID                                 : S_HDMV/PGS
Codec ID/Info                            : Picture based subtitle format used on BDs/HD-DVDs
Duration                                 : 2 h 15 min
Bit rate                                 : 3 822 b/s
Count of elements                        : 390
Stream size                              : 3.70 MiB (0%)
Title                                    : German BD-PGS {Forced}
Language                                 : German
Default                                  : No
Forced                                   : No

Text #6
ID                                       : 8
Format                                   : PGS
Muxing mode                              : zlib
Codec ID                                 : S_HDMV/PGS
Codec ID/Info                            : Picture based subtitle format used on BDs/HD-DVDs
Duration                                 : 2 h 45 min
Bit rate                                 : 21.0 kb/s
Count of elements                        : 2630
Stream size                              : 24.8 MiB (0%)
Title                                    : Dutch BD-PGS
Language                                 : Dutch
Default                                  : No
Forced                                   : No

Menu
00:00:00.000                             : en:Chapter 01
00:14:00.000                             : en:Chapter 02
00:22:11.083                             : en:Chapter 03
00:25:18.458                             : en:Chapter 04
00:34:40.833                             : en:Chapter 05
00:43:34.292                             : en:Chapter 06
00:47:37.375                             : en:Chapter 07
00:59:28.042                             : en:Chapter 08
01:10:53.292                             : en:Chapter 09
01:19:36.000                             : en:Chapter 10
01:26:14.583                             : en:Chapter 11
01:37:20.458                             : en:Chapter 12
01:40:45.500                             : en:Chapter 13
01:46:08.917                             : en:Chapter 14
01:50:09.792                             : en:Chapter 15
01:56:49.917                             : en:Chapter 16
02:03:39.292                             : en:Chapter 17
02:13:51.333                             : en:Chapter 18
02:26:29.958                             : en:Chapter 19
02:38:02.417                             : en:Chapter 20
02:47:22.542                             : en:Chapter 21



Code:

Source:
-Dhoom • 2004 • BD50 • Untouched BluRay • YrF • DRs
-Dhoom:2 • 2006 • BD50 • Untouched BluRay • DRs
-Dhoom 3 • 2013 • BD50 • Untouched GER BluRay • Rapid Eye Movies • DRs {Video,Audio,Subs}
Dhoom 3 • 2013 • BD50 • Untouched BluRay • YrF • DRs {Subs}
EnjoYy...




Download torrent
17.8 GB
seeders:17
leechers:8
Dhoom Trilogy (2004-2013) Hindi 1080p 10bit Bluray x265 HEVC DDP 5.1 MSubs ~ TombDoc


Trackers

tracker name
udp://tracker.coppersurfer.tk:6969/announce
udp://tracker.opentrackr.org:1337/announce
udp://tracker.openbittorrent.com:80/announce
udp://tracker.internetwarriors.net:1337/announce
udp://tracker.leechers-paradise.org:6969/announce
udp://p4p.arenabg.com:1337/announce
udp://9.rarbg.to:2710/announce
udp://9.rarbg.me:2710/announce
udp://exodus.desync.com:6969/announce
udp://tracker.cyberia.is:6969/announce
udp://open.stealth.si:80/announce
udp://tracker.torrent.eu.org:451/announce
udp://tracker.tiny-vps.com:6969/announce
udp://retracker.lanta-net.ru:2710/announce
udp://tracker3.itzmx.com:6961/announce
udp://tracker.moeking.me:6969/announce
http://tracker1.itzmx.com:8080/announce
udp://bt1.archive.org:6969/announce
udp://ipv4.tracker.harry.lu:80/announce
udp://bt2.archive.org:6969/announce
µTorrent compatible trackers list

Download torrent
17.8 GB
seeders:17
leechers:8
Dhoom Trilogy (2004-2013) Hindi 1080p 10bit Bluray x265 HEVC DDP 5.1 MSubs ~ TombDoc


Torrent hash: BC69A7DF143174DA541FCD703F2A05E287C86AD7