Barack Obama Talks to David Olusoga (1280x720p HD, 50fps, soft Eng subs)

seeders: 6
leechers: 1
updated:
Added by ElsonRoa in TV > HD

Download Fast Safe Anonymous
movies, software, shows...
  • Downloads: 56
  • Language: English

Files

Barack Obama Talks to David Olusoga
  • About this torrent.txt (2.0 KB)
  • Barack Obama Talks to David Olusoga.jpg (770.3 KB)
  • Barack Obama Talks to David Olusoga.mp4 (1.1 GB)
  • Barack Obama Talks to David Olusoga.srt (54.3 KB)
  • Downloaded from Demonoid - www.dnoid.is.txt (0.1 KB)
  • If this torrent is dead.txt (0.1 KB)
  • Torrent Downloaded From 1337x.to.txt (0.0 KB)
  • [TGx]Downloaded from torrentgalaxy.to.txt (0.5 KB)

Description

Barack Obama Talks to David Olusoga (1280x720p HD, 50fps, soft Eng subs)

In a UK exclusive, former American president Barack Obama encounters historian David Olusoga to discuss his long-awaited memoir A Promised Land, his reflections on the volatile racial divide in the US, his steadfast refusal to abandon American ideals, and how the sight of a black president and black first family in the White House may have cast a spotlight on the depth of racial fault lines in America.

First broadcast: 18 November 2020
Duration: 30 minutes

Torrent dead? Request reseed at torrentgalaxy.org - or ask at elsonroa at tutanota.com

Media info:-
General
Format : MPEG-4
Format profile : Base Media
Codec ID : isom (isom/iso2/avc1/mp41)
File size : 1.06 GiB
Duration : 29mn 18s
Overall bit rate mode : Variable
Overall bit rate : 5 167 Kbps

Video
ID : 1
Format : AVC
Format/Info : Advanced Video Codec
Format profile : [email protected]
Format settings, CABAC : Yes
Format settings, ReFrames : 2 frames
Codec ID : avc1
Codec ID/Info : Advanced Video Coding
Duration : 29mn 18s
Bit rate : 5 027 Kbps
Width : 1 280 pixels
Height : 720 pixels
Display aspect ratio : 16:9
Frame rate mode : Variable
Frame rate : 50.000 fps
Minimum frame rate : 25.000 fps
Maximum frame rate : 90 000.000 fps
Standard : Component
Color space : YUV
Chroma subsampling : 4:2:0
Bit depth : 8 bits
Scan type : Progressive
Bits/(Pixel*Frame) : 0.109
Stream size : 1.03 GiB (97%)
Encoded date : UTC 1904-01-01 00:00:00
Tagged date : UTC 1904-01-01 00:00:00
Color range : Limited
Color primaries : BT.709
Transfer characteristics : BT.709
Matrix coefficients : BT.709

Audio
ID : 2
Format : AAC
Format/Info : Advanced Audio Codec
Format profile : LC
Codec ID : 40
Duration : 29mn 18s
Bit rate mode : Variable
Bit rate : 125 Kbps
Maximum bit rate : 132 Kbps
Channel(s) : 2 channels
Channel positions : Front: L R
Sampling rate : 48.0 KHz
Frame rate : 46.875 fps (1024 spf)
Compression mode : Lossy
Stream size : 26.3 MiB (2%)
Language : English



Download torrent
1.1 GB
seeders:6
leechers:1
Barack Obama Talks to David Olusoga (1280x720p HD, 50fps, soft Eng subs)


Trackers

tracker name
udp://us-tracker.publictracker.xyz:6969/announce
udp://tracker.opentrackr.org:1337/announce
udp://tracker.cyberia.is:6969/announce
udp://t.lint2.com:9000/announce
udp://tracker.moeking.me:6969/announce
udp://tracker.torrent.eu.org:451/announce
udp://tracker.tiny-vps.com:6969/announce
udp://open.stealth.si:80/announce
µTorrent compatible trackers list

Download torrent
1.1 GB
seeders:6
leechers:1
Barack Obama Talks to David Olusoga (1280x720p HD, 50fps, soft Eng subs)


Torrent hash: 4637C1C4E6C2C0D910EB8D7AB9252705BEE25A47