Baki - Season 02 S02 [2020] 1080p NF WebRip x265 AAC 2.0 Kira [SEV]

seeders: 15
leechers: 10
updated:
Added by 1337xKira in Anime > Subbed

Download Fast Safe Anonymous
movies, software, shows...

Files

Grappler Baki 4. Baki - Season - 02 [2020] 1080p NF WebRip x265 AAC 2.0 Kira [SEV]
  • Baki - S02.E01 - Begin! The Centennial Tournament 1080p NF WebRip x265 AAC 2.0 Kira [SEV].mkv (450.0 MB)
  • Baki - S02.E02 - Turnaround 1080p NF WebRip x265 AAC 2.0 Kira [SEV].mkv (431.3 MB)
  • Baki - S02.E03 - Revived! 1080p NF WebRip x265 AAC 2.0 Kira [SEV].mkv (450.3 MB)
  • Baki - S02.E04 - Turnaround 1080p NF WebRip x265 AAC 2.0 Kira [SEV].mkv (450.3 MB)
  • Baki - S02.E05 - Hand Pocket 1080p NF WebRip x265 AAC 2.0 Kira [SEV].mkv (450.3 MB)
  • Baki - S02.E06 - Excellennnnt! 1080p NF WebRip x265 AAC 2.0 Kira [SEV].mkv (450.5 MB)
  • Baki - S02.E07 - Kaioh 1080p NF WebRip x265 AAC 2.0 Kira [SEV].mkv (449.7 MB)
  • Baki - S02.E08 - The Title of the Strongest 1080p NF WebRip x265 AAC 2.0 Kira [SEV].mkv (450.3 MB)
  • Baki - S02.E09 - The Master vs. the Boxer 1080p NF WebRip x265 AAC 2.0 Kira [SEV].mkv (449.3 MB)
  • Baki - S02.E10 - Stand and Fight 1080p NF WebRip x265 AAC 2.0 Kira [SEV].mkv (450.4 MB)
  • Baki - S02.E11 - Awakening 1080p NF WebRip x265 AAC 2.0 Kira [SEV].mkv (450.1 MB)
  • Baki - S02.E12 - Completion 1080p NF WebRip x265 AAC 2.0 Kira [SEV].mkv (450.1 MB)
  • Baki - S02.E13 - Revenge Tokyo 1080p NF WebRip x265 AAC 2.0 Kira [SEV].mkv (448.1 MB)
  • Contact SEV.txt (1.0 KB)

Description



Screenshot's



Media Information


Code:

General
Unique ID : 2407675061341958507019442114098421210 (0x1CFB38BA7657D5E4C7B057B0B50DDDA)
Complete name : Baki - S02.E01 - Begin! The Centennial Tournament 1080p NF WebRip x265 AAC 2.0 Kira [SEV].mkv
Format : Matroska
Format version : Version 4
File size : 450 MiB
Duration : 23 min 57 s
Overall bit rate : 2 626 kb/s
Movie name : Baki : S02.E01 : Begin! The Centennial Tournament
Encoded date : UTC 2020-07-21 08:29:42
Writing application : mkvmerge v48.0.0 ('Fortress Around Your Heart') 64-bit
Writing library : libebml v1.4.0 + libmatroska v1.6.0

Video
ID : 1
Format : HEVC
Format/Info : High Efficiency Video Coding
Format profile : Main [email protected]@Main
Codec ID : V_MPEGH/ISO/HEVC
Duration : 23 min 57 s
Bit rate : 2 496 kb/s
Width : 1 920 pixels
Height : 1 080 pixels
Display aspect ratio : 16:9
Frame rate mode : Constant
Frame rate : 23.976 (24000/1001) FPS
Color space : YUV
Chroma subsampling : 4:2:0
Bit depth : 10 bits
Bits/(Pixel*Frame) : 0.050
Stream size : 428 MiB (95%)
Title : Baki : S02.E01 : Begin! The Centennial Tournament
Writing library : x265 3.4+12-geff904199:[Windows][MSVC 1926][64 bit] 10bit
Encoding settings : cpuid=1111039 / frame-threads=2 / numa-pools=4 / wpp / no-pmode / no-pme / no-psnr / no-ssim / log-level=2 / input-csp=1 / input-res=1920x1080 / interlace=0 / total-frames=34458 / level-idc=0 / high-tier=1 / uhd-bd=0 / ref=4 / no-allow-non-conformance / no-repeat-headers / annexb / no-aud / no-hrd / info / hash=0 / no-temporal-layers / open-gop / min-keyint=23 / keyint=250 / gop-lookahead=0 / bframes=8 / b-adapt=0 / b-pyramid / bframe-bias=0 / rc-lookahead=100 / lookahead-slices=4 / scenecut=40 / hist-scenecut=0 / radl=0 / no-splice / no-intra-refresh / ctu=64 / min-cu-size=8 / no-rect / no-amp / max-tu-size=32 / tu-inter-depth=1 / tu-intra-depth=1 / limit-tu=0 / rdoq-level=2 / dynamic-rd=0.00 / no-ssim-rd / signhide / no-tskip / nr-intra=0 / nr-inter=0 / no-constrained-intra / no-strong-intra-smoothing / max-merge=3 / limit-refs=3 / limit-modes / me=3 / subme=7 / merange=92 / temporal-mvp / no-frame-dup / no-hme / weightp / no-weightb / no-analyze-src-pics / deblock=0:0 / sao / no-sao-non-deblock / rd=4 / selective-sao=4 / no-early-skip / rskip / no-fast-intra / no-tskip-fast / no-cu-lossless / no-b-intra / no-splitrd-skip / rdpenalty=0 / psy-rd=1.30 / psy-rdoq=1.00 / no-rd-refine / no-lossless / cbqpoffs=0 / crqpoffs=0 / rc=abr / bitrate=2500 / qcomp=0.60 / qpstep=4 / stats-write=0 / stats-read=2 / cplxblur=20.0 / qblur=0.5 / ipratio=1.40 / pbratio=1.30 / aq-mode=3 / aq-strength=1.10 / cutree / zone-count=0 / no-strict-cbr / qg-size=32 / no-rc-grain / qpmax=69 / qpmin=0 / no-const-vbv / sar=0 / overscan=0 / videoformat=5 / range=0 / colorprim=2 / transfer=2 / colormatrix=2 / chromaloc=0 / display-window=0 / cll=0,0 / min-luma=0 / max-luma=1023 / log2-max-poc-lsb=8 / vui-timing-info / vui-hrd-info / slices=1 / no-opt-qp-pps / no-opt-ref-list-length-pps / no-multi-pass-opt-rps / scenecut-bias=0.05 / hist-threshold=0.03 / no-opt-cu-delta-qp / no-aq-motion / no-hdr10 / no-hdr10-opt / no-dhdr10-opt / no-idr-recovery-sei / analysis-reuse-level=0 / analysis-save-reuse-level=0 / analysis-load-reuse-level=0 / scale-factor=0 / refine-intra=0 / refine-inter=0 / refine-mv=1 / refine-ctu-distortion=0 / no-limit-sao / ctu-info=0 / no-lowpass-dct / refine-analysis-type=0 / copy-pic=1 / max-ausize-factor=1.0 / no-dynamic-refine / no-single-sei / no-hevc-aq / no-svt / no-field / qp-adaptation-range=1.00 / no-scenecut-aware-qpconformance-window-offsets / right=0 / bottom=0 / decoder-max-rate=0
Language : Japanese
Default : Yes
Forced : No

Audio
ID : 2
Format : AAC LC SBR
Format/Info : Advanced Audio Codec Low Complexity with Spectral Band Replication
Commercial name : HE-AAC
Format settings : Explicit
Codec ID : A_AAC-2
Duration : 23 min 57 s
Bit rate : 128 kb/s
Channel(s) : 2 channels
Channel layout : L R
Sampling rate : 48.0 kHz
Frame rate : 23.438 FPS (2048 SPF)
Compression mode : Lossy
Stream size : 21.9 MiB (5%)
Title : Japanese AAC DD_2.0
Language : Japanese
Default : Yes
Forced : No

Text
ID : 3
Format : ASS
Codec ID : S_TEXT/ASS
Codec ID/Info : Advanced Sub Station Alpha
Duration : 21 min 55 s
Bit rate : 89 b/s
Count of elements : 258
Compression mode : Lossless
Stream size : 14.4 KiB (0%)
Title : English ASS
Language : English
Default : Yes
Forced : No



Source Information


Code:

[Erai-raws] Baki (2020) - 01 ~ 13 [1080p][Multiple Subtitle] (11.2 GB)



We have no issue with individuals posting or re-uploading our torrents on a platform we aren't on. However, if this is something you'd like to do, please do so in a 'as-is' format. We ask that you do not create a new torrent, include all descriptions you see above including the SEV logo, tags, notes and screenshots. If you'd like to become a permanent poster on a website we don't post to, feel free to get in contact with a Sublime Encoded Video member.

We are recruiting/training new members for SEV & seedbox providers as well as people to help out with subtitles.
As you already know, we deliver quality, so you know the standard.
If you're interested, feel free to contact any of the team members.






Download torrent
5.7 GB
seeders:15
leechers:10
Baki - Season 02 S02 [2020] 1080p NF WebRip x265 AAC 2.0 Kira [SEV]


Trackers

tracker name
http://tracker.opentrackr.org:1337/announce
udp://tracker.opentrackr.org:1337/announce
udp://tracker.torrent.eu.org:451/announce
udp://tracker.leechers-paradise.org:6969/announce
udp://explodie.org:6969/announce
udp://tracker.cyberia.is:6969/announce
udp://ipv4.tracker.harry.lu:80/announce
http://explodie.org:6969/announce
udp://9.rarbg.com:2710/announce
http://nyaa.tracker.wf:7777/announce
http://anidex.moe:6969/announce
µTorrent compatible trackers list

Download torrent
5.7 GB
seeders:15
leechers:10
Baki - Season 02 S02 [2020] 1080p NF WebRip x265 AAC 2.0 Kira [SEV]


Torrent hash: BADD8EEBD9B88701D56239BA0624B4E99DB855D7