Alter Bridge - 2020 - Walk The Sky 2.0 (32-96)

seeders: 8
leechers: 2
updated:

Download Fast Safe Anonymous
movies, software, shows...
  • Downloads: 116
  • Language: English

Files

Alter Bridge - 2020 - Walk The Sky 2.0 (32-96)
  • 01. Last Rites.wv (38.9 MB)
  • 02. Wouldn't You Rather.wv (36.0 MB)
  • 03. Pay No Mind.wv (41.8 MB)
  • 04. Native Son.wv (38.7 MB)
  • 05. Godspeed.wv (39.1 MB)
  • 06. In The Deep.wv (37.0 MB)
  • 07. Dying Light.wv (51.8 MB)
  • foo_dr.txt (1.1 KB)

Description





foobar2000 1.6.2 / Dynamic Range Meter 1.1.1
log date: 2020-11-18 18:21:11

--------------------------------------------------------------------------------
Analyzed: Alter Bridge / Walk The Sky 2.0
--------------------------------------------------------------------------------

DR         Peak         RMS     Duration Track
--------------------------------------------------------------------------------
DR11      -6.46 dB   -17.94 dB      4:06 01-Last Rites
DR11      -5.29 dB   -17.68 dB      4:01 02-Wouldn't You Rather
DR11      -6.28 dB   -18.10 dB      4:27 03-Pay No Mind
DR10      -7.25 dB   -18.62 dB      4:26 04-Native Son
DR10      -6.28 dB   -18.14 dB      4:27 05-Godspeed
DR11      -6.29 dB   -18.45 dB      4:03 06-In The Deep
DR10      -7.01 dB   -19.02 dB      5:56 07-Dying Light
--------------------------------------------------------------------------------

Number of tracks:  7
Official DR value: DR11

Samplerate:        96000 Hz
Channels:          2
Bits per sample:   32
Bitrate:           1221 kbps
Codec:             WavPack
================================================================================



Download torrent
283.3 MB
seeders:8
leechers:2
Alter Bridge - 2020 - Walk The Sky 2.0 (32-96)


Trackers

tracker name
udp://tracker.openbittorrent.com:80/announce
udp://tracker.opentrackr.org:1337/announce
µTorrent compatible trackers list

Download torrent
283.3 MB
seeders:8
leechers:2
Alter Bridge - 2020 - Walk The Sky 2.0 (32-96)


Torrent hash: 42A9DA59908D885866510F4647C9A3B91DDCF642